Активные темы · Участники · Правила форума · Поиск по названию ·  

Страница 65 из 67«126364656667»
Архив - только для чтения
Модератор форума: Stalker, rn21 
Форум » Meizu MX2 » Новости » Meizu MX2 (M040) (Новая модель от MEIZU)
Meizu MX2 (M040)
StalkerДата: Среда, 05.09.2012, 11:40 | Сообщение # 1
Главный модер
Группа: Модераторы
Сообщений: 8442
Репутация: 909
Телефон: M2 mini/Pro6
Статус: Offline
[spoiler="Характеристики, цена и дата выхода"]Сети: GSM/GPRS/EDGE/WCDMA(3G)/HSPA+
Экран - 1280х800, 4.4"(16:10, ppi 347)
Процессор - 1.6GHz Exynos 4412, 4 ядра
Оперативная память - 2Гб
Встроенная память - от 16 до 64Гб
Камера задняя - 8МП BSI, LED вспышка, 1080p, f/2.4, панорама
Камера передняя - 1,3МП 720p
WIFI (802.11 b/g/n), WLAN Direct
Bluetooth 4.0
GPS/A-GPS/GLONASS
Батарея - 1800мАч: время автономной работы
- Разговор в 2G — 13 часов
- Разговор в 3G — 10 часов
- Веб-серфинг 3G — 7 часов
- Веб-серфинг Wi-Fi — 8 часов
- Просмотр видео в разрешении 1080p — 6 часов
- Прослушивание музыки — 46 часов
- Режим ожидания — 330 часов
Размеры, ВхШхГ: 124,9мм х 64,9мм х 10,2мм
Вес: 142 гр

Цены в Китае:
16Гб - 2499 юаней
32Гб - 2999 юаней
64Гб - 3999 юаней
Цены в России (РСТ):
16Гб - 17990 руб
32Гб - 19990 руб
64Гб - 21990 руб
Старт продаж в Китае - конец декабря 2012 года
Старт продаж в России - начало января 2013 года[/spoiler][spoiler="Фотографии"] [/spoiler]

                               



 8239126.jpg(65Kb) · 5654679.jpg(32Kb) · 5429083.jpg(31Kb)


Все благодарности участникам выражайте плюсом в репутацию
Помощь в личку не оказываю! Все вопросы - на форум.
FAQ - рекомендую к прочтению.
 
proguralДата: Суббота, 20.04.2013, 03:38 | Сообщение # 961
Новичок
Группа: Пользователи
Сообщений: 16
Репутация: -1
Статус: Offline
Цитата
Батарейку бы сделали туда более емкую.


Советую ставить производительность на минимум, немного помогает продлить жизнь заряду и меньше нагреваться. В обычной работе же уменьшение производительности заметить практически невозможно.
 
pilot752Дата: Понедельник, 13.05.2013, 15:48 | Сообщение # 962
Новичок
Группа: Новички
Сообщений: 2
Репутация: 0
Телефон: meizu mx2
Статус: Offline
Не работает автоответчик настраивал по писаному
 
HelgoДата: Четверг, 16.05.2013, 11:57 | Сообщение # 963
Наблюдатель
Группа: Пользователи
Сообщений: 97
Репутация: 8
Телефон: Meizu MX2 - 32 Gb
Статус: Offline
Цитата (pilot752)
Не работает автоответчик настраивал по писаному

записал свой файл приветствия и все отлично работает как и заявлено.
После 5-6 звонка включается автоответчик
Запись должна быть не более 10 сек
 
efgenДата: Пятница, 17.05.2013, 14:07 | Сообщение # 964
Участник
Группа: Пользователи
Сообщений: 25
Репутация: 0
Телефон: Meizu MX 4-core 32 Gb
Статус: Offline
Приложение "Диктофон" не выдает ошибку при открытии?
 
pilot752Дата: Среда, 22.05.2013, 18:44 | Сообщение # 965
Новичок
Группа: Новички
Сообщений: 2
Репутация: 0
Телефон: meizu mx2
Статус: Offline
Ошибок нет, попытки прекратил, осадок остался, аппарат радовал .после обноления попоробую ещё
 
lomond1Дата: Понедельник, 10.06.2013, 10:29 | Сообщение # 966
Новичок
Группа: Пользователи
Сообщений: 14
Репутация: 0
Телефон: meizu mx2
Статус: Offline
Может ли стоить мх2 на 16 гб 260 доларов в китае, или это какие то восстановленные?
 
zeroid48Дата: Понедельник, 10.06.2013, 10:46 | Сообщение # 967
Наблюдатель
Группа: Пользователи
Сообщений: 78
Репутация: 8
Телефон: Meizu M2 Note
Статус: Offline
Цитата (lomond1)
Может ли стоить мх2 на 16 гб 260 доларов в китае, или это какие то восстановленные?

на офсайте была распродажа 16гиговой китайской версии
 
ШурикДата: Четверг, 04.07.2013, 11:22 | Сообщение # 968
Новичок
Группа: Новички
Сообщений: 2
Репутация: 0
Телефон: Meizu MX2
Статус: Offline
Будет ли переход Flyme на новую версию андройда 4.2 / 3 smile
 
StalkerДата: Четверг, 04.07.2013, 11:36 | Сообщение # 969
Главный модер
Группа: Модераторы
Сообщений: 8442
Репутация: 909
Телефон: M2 mini/Pro6
Статус: Offline
Шурик, конечно будет. Версия андроида в оболочке flyme обновляется периодически...

Все благодарности участникам выражайте плюсом в репутацию
Помощь в личку не оказываю! Все вопросы - на форум.
FAQ - рекомендую к прочтению.
 
SyavaДата: Пятница, 05.07.2013, 21:04 | Сообщение # 970
Новичок
Группа: Новички
Сообщений: 2
Репутация: 0
Телефон: Meizu MX2
Статус: Offline
А когда обновление прошивки выйдет?

-----------------
модератор:
даты выхода прошивок, как правило, не публикуются.
новые прошивки выходят по мере исправления багов (примерно раз в два месяца).
 
kazakovvДата: Вторник, 23.07.2013, 14:22 | Сообщение # 971
Новичок
Группа: Новички
Сообщений: 6
Репутация: 0
Телефон: Meizu MX2
Статус: Offline
Странные ограничения в папках. Начал сартировать приложения по папкам в одну папку влезло 16 приложений, в другую 15, в ещё одну 5 и больше не хочет в себя пускать, убегает и всё. Скажите, есть ли какие то ограничения в папках по размещению в ней ярлыков от программ ? После того, как записал через стандартный диктофон звук, прослушал на компе, данные качества просмотрел на нём же,конечно оставляют желать лучшего. Диктофон пишет хоть и разборчиво но с низким битрейтом в 64 кбс -стремновастенько. С таким железом, друзья, и такой битрейт, как то не мужски.
Вот медиа данные звукового файла который я записал через стандартный диктофон

R30723-090205.mp3
Format : MPEG Audio
File size : 767 KiB
Duration : 1mn 38s
Overall bit rate mode : Constant
Overall bit rate : 64.0 Kbps haha

Audio
Format : MPEG Audio
Format version : Version 1
Format profile : Layer 3
Duration : 1mn 38s
Bit rate mode : Constant
Bit rate : 64.0 Kbps ???? haha
Channel(s) : 1 channel
Sampling rate : 44.1 KHz
Compression mode : Lossy
Stream size : 767 KiB (100%)

Типа тем самым они экономят место на устройстве?! Да ну, бред товарищи! А камера? Да фиг с ним, что зернистость присутствует,и запись в низком битрейт при разрешении камеры в 8 мегапикс, но звук то, звук? Чего такой битрейт то низкий? Смазанно пишет звук. Надеюсь прошивкой исправят это всё. Очень надеюсь
Вот данные качества видео фрагмента снятого на него же, средствами стандартного приложения "камера"

Minimum frame rate : 27.574 fps
Maximum frame rate : 33.015 fps
Color space : YUV
Chroma subsampling : 4:2:0
Bit depth : 8 bits
Scan type : Progressive
Bits/(Pixel*Frame) : 0.115
Stream size : 4.40 MiB (91%)
Title : VideoHandle
Language : English

Audio
ID : 2
Format : AAC
Format/Info : Advanced Audio Codec
Format profile : LC
Codec ID : 40
Duration : 5s 248ms
Bit rate mode : Constant
Bit rate : 96.0 Kbps lol
Channel(s) : 1 channel killed с двумя то динамиками ?? самс гэлэкси 3 ий использует его тоже как шумодав и как микрофон при записи видео. Как им это удалось?
Channel positions : Front: C
Sampling rate : 16.0 KHz
Compression mode : Lossy
Stream size : 60.8 KiB (1%)
Title : SoundHandle
Language : English
Material_Duration : 5297
Material_Duration_FirstFrame : 8
Material_StreamSize : 62976

Ну куда такое годиться то? Битрейт 94 КБС??? Издеваетесь, с таким то железом? сравнение с Самсунгом Гэлэкси 3 и его медиаданными и стаким же железом

Format : MPEG-4
Format profile : Base Media
Codec ID : isom
File size : 85.9 MiB
Duration : 42s 347ms
Overall bit rate : 17.0 Mbps

Video
ID : 1
Format : AVC
Format/Info : Advanced Video Codec
Format profile : High@L4.0 у MX2 Format profile: Main@L4.0
Format settings, CABAC : Yes у MX2 Format settings,CABAC : No
Format settings, ReFrames : 1 frame
Format settings, GOP : M=1, N=30
Codec ID : avc1
Codec ID/Info : Advanced Video Coding
Duration : 42s 25ms
Bit rate : 17.0 Mbps dry как так ?
Width : 1 920 pixels
Height : 1 080 pixels
Display aspect ratio : 16:9
Frame rate mode : Variable
Frame rate : 30.000 fps
Minimum frame rate : 27.289 fps
Maximum frame rate : 30.010 fps
Color space : YUV
Chroma subsampling : 4:2:0
Bit depth : 8 bits
Scan type : Progressive
Bits/(Pixel*Frame) : 0.274
Stream size : 85.3 MiB (99%)
Title : VideoHandle
Language : English
Encoded date : UTC 2013-07-17 16:01:18
Tagged date : UTC 2013-07-17 16:01:18
Material_Duration : 42028
Material_StreamSize : 89426154
Material_FrameCount : 1261

Audio
ID : 2
Format : AAC
Format/Info : Advanced Audio Codec
Format profile : LC
Codec ID : 40
Duration : 42s 347ms
Bit rate mode : Constant
Bit rate : 128 Kbps specool
Channel(s) : 2 channels
Channel positions : Front: L R Стерео Левый/Правый
Sampling rate : 48.0 KHz
Compression mode : Lossy
Stream size : 646 KiB (1%)
Title : SoundHandle
Language : English


Сообщение отредактировал kazakovv - Вторник, 23.07.2013, 15:09
 
d1ggerДата: Среда, 07.08.2013, 11:42 | Сообщение # 972
Бывалый
Группа: Пользователи
Сообщений: 10
Репутация: 0
Телефон: MX2 16Gb
Статус: Offline
kazakovv, это отличный битрейт для записи голоса с диктофона. Даже с 32kbps выходит прекрасное звучание при условии достойного микрофона. Проведите эксперимент: возьмите качественно записанную речь, например диалог из фильма, и пережмите в 32 и 64. А потом посмотрите насколько хуже получился результат.

LG Optimus G 32GB White
Meizu MX2 16GB
HTC HD2 WP7+ICS CM9
Meizu M8 16G WiFi Black&White
Meizu M8 8G WiFi Black - пал смертью храбрых
 
bladedanceДата: Четверг, 08.08.2013, 19:15 | Сообщение # 973
Новичок
Группа: Новички
Сообщений: 1
Репутация: 0
Телефон: meizu mx2
Статус: Offline
Будет ли Meizu MX2 обновляться до android 4.2
 
StalkerДата: Четверг, 08.08.2013, 19:42 | Сообщение # 974
Главный модер
Группа: Модераторы
Сообщений: 8442
Репутация: 909
Телефон: M2 mini/Pro6
Статус: Offline
bladedance, будет.

Все благодарности участникам выражайте плюсом в репутацию
Помощь в личку не оказываю! Все вопросы - на форум.
FAQ - рекомендую к прочтению.
 
shtuka4Дата: Суббота, 17.08.2013, 22:56 | Сообщение # 975
Бывалый
Группа: Пользователи
Сообщений: 154
Репутация: 6
Телефон: MX2 32GB
Статус: Offline
подскажите как удалить все номера из группы flyme. по одному тыкать не удобно, когда их более 100, а на сайте все по китайски =)
 
Форум » Meizu MX2 » Новости » Meizu MX2 (M040) (Новая модель от MEIZU)
Страница 65 из 67«126364656667»
Поиск: